Love.and.Monsters.2020.AMZN.WEB-DLRip.1.46Gb

Added Time : 1 month ago

Last Update : 3 days ago Update Tracker

Seeders : 87

Leechers : 0

Size : 1.46 GB

Total Files : 2

infohash : 07a8a81d8ff2fba36e45b27935d87323c7b55300

Love.and.Monsters.2020.AMZN.WEB-DLRip.1.46Gb

Warning! Always use a VPN When Downloading Torrents!

Your leaked IP address 3.236.156.32 reveals your location from Ashburn, Canada / United States.
Do NOT download any torrent before hiding your IP with a VPN.
To Help We are Offering 6 Months Free VPN to All 7torrents User's
Claim Free 6 Months

Description :



Code:

Release Title: Love and Monsters (2020) 480p WEB-DL Xvid AC3 5.1 Rus - MeGUiL
Directed By: Michael Matthews
Genre: Action, Adventure, Comedy
Release Dates: 16 October 2020
Language: Russian
Subtitles: Russian (Forced only - separate file)
Total Size: 1.46 GB (1,568,940,032 bytes)
Duration: 1h 48m 51s
Encoder: MeGUiL

Storyline: Seven years after the Monsterpocalypse, Joel Dawson (Dylan O'Brien), along with the rest of humanity, has been living underground ever since giant creatures took control of the land. After reconnecting over radio with his high school girlfriend Aimee (Jessica Henwick), who is now 80 miles away at a coastal colony, Joel begins to fall for her again. As Joel realizes that there's nothing left for him underground, he decides against all logic to venture out to Aimee, despite all the dangerous monsters that stand in his way. The fun-filled and action-packed adventure also stars Michael Rooker and Ariana Greenblatt.

Cast:
Dylan O'Brien ... Joel
Jessica Henwick ... Aimee
Michael Rooker ... Clyde
Dan Ewing ... Cap
Ariana Greenblatt ... Minnow
Ellen Hollman ... Dana
Tre Hale ... Rocko
Pacharo Mzembe ... Ray
Senie Priti ... Karen
Amali Golden ... Ava
Te Kohe Tuhaka ... Tim
Tasneem Roc ... Anna Lucia
Thomas Campbell ... Anderson
Joel Pierce ... Connor
Melanie Zanetti ... Kala / Voice of Mav1s

Video Specs:
Format : MPEG-4 Visual
Format profile : Advanced [email protected]
Format settings, BVOP : 1
Format settings, QPel : No
Format settings, GMC : No warppoints
Format settings, Matrix : Custom
Codec ID : XVID
Codec ID/Hint : XviD
Duration : 1 h 48 min
Bit rate : 1 464 kb/s
Width : 704 pixels
Height : 288 pixels
Display aspect ratio : 2.40:1
Frame rate : 23.976 (24000/1001) FPS
Color space : YUV
Chroma subsampling : 4:2:0
Bit depth : 8 bits
Scan type : Progressive
Compression mode : Lossy
Bits/(Pixel*Frame) : 0.301
Stream size : 1.11 GiB (76%)
Writing library : XviD 69

Audio Specs: Russian
Format : AC-3
Format/Info : Audio Coding 3
Mode extension : CM (complete main)
Format settings, Endianness : Big
Codec ID : 2000
Duration : 1 h 48 min
Bit rate mode : Constant
Bit rate : 448 kb/s
Channel(s) : 6 channels
Channel positions : Front: L C R, Side: L R, LFE
Sampling rate : 48.0 kHz
Frame rate : 31.250 FPS (1536 spf)
Bit depth : 16 bits
Compression mode : Lossy
Stream size : 349 MiB (23%)
Alignment : Split accross interleaves
Interleave, duration : 42 ms (1.00 video frame)
Interleave, preload duration : 500 ms

IMDB: https://www.imdb.com/title/tt2222042/
IMDb Rating: 7.1/10 (7,800 user)

Greets: 1337x And Many More.  ;)



Screens:






Torrent Files

  • 1.46 GB Love.and.Monsters.2020.AMZN.WEB-DLRip.1.46Gb.avi
  • 4.71 KB Love.and.Monsters.2020.AMZN.WEB-DLRip.1.46Gb_forced.rus.srt

Comments

Login to Post Comments