Nomadland.2020.1080p.WEBSCR.DD2.0.x264-NOGRP

Added Time : 9 months ago

Last Update : 4 days ago Update Tracker

Seeders : 50

Leechers : 39

Size : 2.51 GB

Total Files : 1

infohash : 2de7df066fa639669f1e877ce49e65ed5f1e6d94

Nomadland.2020.1080p.WEBSCR.DD2.0.x264-NOGRP

Description :





https://www.imdb.com/title/tt9770150/

Code:

Video
ID : 1
Format : AVC
Format/Info : Advanced Video Codec
Format profile : [email protected]
Format settings : CABAC / 4 Ref Frames
Format settings, CABAC : Yes
Format settings, Reference frames : 4 frames
Codec ID : V_MPEG4/ISO/AVC
Duration : 1 h 47 min
Bit rate : 2 960 kb/s
Width : 1 920 pixels
Height : 800 pixels
Display aspect ratio : 2.40:1
Frame rate mode : Constant
Frame rate : 30.000 FPS
Color space : YUV
Chroma subsampling : 4:2:0
Bit depth : 8 bits
Scan type : Progressive
Bits/(Pixel*Frame) : 0.064
Stream size : 2.22 GiB (88%)
Language : English
Default : Yes
Forced : No
Color range : Limited
Color primaries : BT.709
Transfer characteristics : BT.709
Matrix coefficients : BT.709

Audio
ID : 2
Format : AC-3
Format/Info : Audio Coding 3
Commercial name : Dolby Digital
Codec ID : A_AC3
Duration : 1 h 47 min
Bit rate mode : Constant
Bit rate : 384 kb/s
Channel(s) : 2 channels
Channel layout : L R
Sampling rate : 48.0 kHz
Frame rate : 31.250 FPS (1536 SPF)
Compression mode : Lossy
Stream size : 295 MiB (11%)
Language : English
Service kind : Complete Main
Default : Yes
Forced : No
Trailer:


Torrent Files

  • 2.51 GB Nomadland.2020.1080p.WEBSCR.DD2.0.x264-NOGRP.mkv

Comments

Login to Post Comments