Tenet.2020.HC.HDTC.XviD.B4ND1T69

Added Time : 1 month ago

Last Update : 3 days ago Update Tracker

Seeders : 120

Leechers : 22

Size : 1.88 GB

Total Files : 8

infohash : 7a8c87e03a5ef58f487d532be132c7d201243efa

Tenet.2020.HC.HDTC.XviD.B4ND1T69

Warning! Always use a VPN When Downloading Torrents!

Your leaked IP address 3.236.156.32 reveals your location from Ashburn, United Kingdom / United States.
Do NOT download any torrent before hiding your IP with a VPN.
To Help We are Offering 6 Months Free VPN to All 7torrents User's
Claim Free 6 Months

Description :

Tenet.2020.HC.HDTC.XviD.B4ND1T69



Director: Christopher Nolan
Writer: Christopher Nolan
Stars: John David Washington, Robert Pattinson, Elizabeth Debicki

Plot/Story:
Armed with only one word, Tenet, and fighting for the survival of the entire world, a Protagonist journeys through a twilight world of international espionage on a mission that will unfold in something beyond real time.

Notes:
Clean Print, NO Ads, Logo's, site addy's or floaty shit...just the movie.
Ran some filters to clean up the image, reduced the flicker, re-balanced the colors, brightness, contrast, gamma and sharpened the image...Samples included, Enjoy :@)

General
Complete name : Tenet.2020.HC.HDTC.XviD.B4ND1T69.avi
Format : AVI
Format/Info : Audio Video Interleave
File size : 1.81 GiB
Duration : 2 h 30 min
Overall bit rate : 1 724 kb/s
Samples : Yes...Included(3)
Subtitles : Hardcoded Chinese throughout + Hardcoded English for non-English parts.

Video
ID : 0
Format : MPEG-4 Visual
Format profile : Advanced [email protected]
Format settings, BVOP : 2
Format settings, QPel : No
Format settings, GMC : No warppoints
Format settings, Matrix : Default (H.263)
Codec ID : XVID
Codec ID/Hint : XviD
Duration : 2 h 30 min
Bit rate : 1 582 kb/s
Width : 720 pixels
Height : 336 pixels
Display aspect ratio : 2.143
Frame rate : 30.303 FPS
Color space : YUV
Chroma subsampling : 4:2:0
Bit depth : 8 bits
Scan type : Progressive
Compression mode : Lossy
Bits/(Pixel*Frame) : 0.216
Stream size : 1.66 GiB (92%)
Writing library : XviD 64

Audio
ID : 1
Format : MPEG Audio
Format version : Version 1
Format profile : Layer 3
Codec ID : 55
Codec ID/Hint : MP3
Duration : 2 h 30 min
Bit rate mode : Constant
Bit rate : 128 kb/s
Channel(s) : 2 channels
Sampling rate : 48.0 kHz
Compression mode : Lossy
Stream size : 137 MiB (7%)
Alignment : Aligned on interleaves
Interleave, duration : 24 ms (0.73 video frame)

Screenshots:












Please Seed For As Long As Possible
Or At Least 1:1 Ratio...Thanks
Enjoy Peeps

Torrent Files

  • 54 B Downloaded from ProStyleX.txt
  • 55 B Downloaded from ETTV.txt
  • 61 B Downloaded from 1337x.txt
  • 139 B Downloaded from newkatcr.co.txt
  • 21.1 MB Sample-3.avi
  • 24.4 MB Sample-2.avi
  • 31.5 MB Sample-1.avi
  • 1.81 GB Tenet.2020.HC.HDTC.XviD.B4ND1T69.avi
Related Torrent

Comments

Login to Post Comments